Garcimak

Xbox Upgrade Piii-s 1.4g/512k/133m

Messages recommandés

Impressionnant travail d'upgrade que propose Trusty un membre chinois d'X-S avec pose de 64mo de RAM supplémentaire à la demande.

pour amoureux de la premiere XBOX qui recherchent une solution d'upgrade , coup de boost pour video, jeux et émulateurs en 720p.

IMG_1763.jpg

Le choix du processeur 1.4/512K/133m respecte la vitesse du 'front side bus' original en 133mhz. Solution La plus simple et stable.

Images :

Ensemble

HDTV

pkbunghole propose un patcher pour aux XBE des conformer à l'horloge du processeur :1400Ghz patcher

source

1.4G_upgrade.jpg

XBMC 720p ( 1280 *720 ) :

Exact huge improvement ,now XBOX 1.4G can play full speed at least my sample H264*720P video,and I didn't see the picture quality reduced:the Realtime average speed from previous 2~3 fps changes to fps:23.98CPU:89.17..------------------------------------GeneralComplete name : D:\H264-720P_Sub_Test.mkvFormat : MatroskaFile size : 31.3 MiBDuration : 2mn 0sOverall bit rate : 2 188 KbpsEncoded date : UTC 2006-11-04 23:43:33Writing application : mkvmerge v1.7.0 ('What Do You Take Me For') built on Apr 28 2006 17:20:19Writing library : libebml v0.7.7 + libmatroska v0.8.0Cover : Yes / YesVideo #2ID : 2Format : AVCFormat/Info : Advanced Video CodecFormat profile : Main@L5.1Format settings, CABAC : YesFormat settings, ReFrames : 6 framesMuxing mode : Container profile=Unknown@5.1Codec ID : V_MPEG4/ISO/AVCDuration : 1mn 59sBit rate : 1 760 KbpsWidth : 1 280 pixelsHeight : 720 pixelsDisplay aspect ratio : 16:9Frame rate : 23.976 fpsResolution : 24 bitsColorimetry : 4:2:0Scan type : ProgressiveBits/(Pixel*Frame) : 0.080Stream size : 25.2 MiB (80%)Language : EnglishAudio #1ID : 1Format : AC-3Format/Info : Audio Coding 3Codec ID : A_AC3Duration : 2mn 0sBit rate mode : ConstantBit rate : 384 KbpsChannel(s) : 6 channelsChannel positions : Front: L C R, Surround: L R, LFESampling rate : 48.0 KHzVideo delay : 12msStream size : 5.49 MiB (18%)Text #3ID : 3Format : ASSCodec ID : S_TEXT/ASSCodec ID/Info : Advanced Sub Station AlphaLanguage : 

Liste de prix :

1, Secondhand complete boards already done with 1.4G/512K+128M: 220 USD;

2, You can send your board to me to get the upgrade (to 1.4G/512K+128M),

the price : 175 USD, Working time: max 4 days

3, You can also send your board to me to get the upgrade (to 1.4G/512K only ),

the price : 160 USD, Working time: max 4 days

4, Please notice my prices are included already the postal cost by DHL,

the PaYPal withdraw cost (For chinese citizen, PayPal & the Intermedial banks

will take so much ),and the special DIY heatsink for 1.4G CPU..

5, The board I send you is a secondhand board, as now there are no complete

new boards in the market.

Modifié par Garcimak

Partager ce message


Lien vers message
Partager sur d'autres sites
:blink: c est quand même impressionnant... après pour enlever proprement le processeur d origine ça doit être bien ...compliqué et pis le reste aussi d ailleur :unsure:

Partager ce message


Lien vers message
Partager sur d'autres sites
:blink: c est quand même impressionnant... après pour enlever proprement le processeur d origine ça doit être bien ...compliqué et pis le reste aussi d ailleur :unsure:

Oui c'est un boulot de fou, d ailleurs je n'ai pas voulu m'y risquer mais pour a peu pres 200$ incl fdp, on peut lui racheter une carte mère déjà équipée du pIII + les 128mo embarqués. De toutes façon il faudra mettre la main à la boîte pour trouver un moyen de dissiper la chaleur impossible avec un boiter d'origine.

Modifié par Garcimak

Partager ce message


Lien vers message
Partager sur d'autres sites

hello

j'ai contacté trusty on peut l'écrire a trustyty@hotmail.com si jamais on est intéressé. Il vend la carte mère v1.0 avec tout déja fait, sinon on peut lui envoyer sa carte mère et il fait les modifs ^^

Partager ce message


Lien vers message
Partager sur d'autres sites

J'ai craqué finalement et pas déçu, cf liste de prix, le plus gros passe dans les fdp

service très pro et rapide. il y a dissipateur revu pour un meilleur refroidissement, avec les condo positionnés

couchés du travail de boucher artisanal.

après test, il y a quelque jeux qui tournent en accéléré (GTA - Fifa soccer) le reste en bénéficie XBMC, Emulators....et la HD, mais seulement en 720p

On peut l'utiliser pour du debogage (là ou une xbox normale n'est pas suffisante) et les températures sont stables vers 50°

Modifié par Garcimak

Partager ce message


Lien vers message
Partager sur d'autres sites

Et la HD ? plus précisément, les DIVX HD, ils passent ? XBMC tourne plus vite ?

Quelle influence sur les émulateurs ?

Quel est le prix global de l'opération si on lui envoie une carte-mère ?

Modifié par megadeth

Partager ce message


Lien vers message
Partager sur d'autres sites
Je crois que c'est marqué 200$ un peu plus haut...

Super boulot, mais un peu cher, non ?

Partager ce message


Lien vers message
Partager sur d'autres sites

Créer un compte ou se connecter pour commenter

Vous devez être membre afin de pouvoir déposer un commentaire

Créer un compte

Créez un compte sur notre communauté. C’est facile !

Créer un nouveau compte

Se connecter

Vous avez déjà un compte ? Connectez-vous ici.

Connectez-vous maintenant